#TITLE:How Are You;
#SUBTITLE:;
#ARTIST:Jewelry;
#TITLETRANSLIT:How Are You;
#SUBTITLETRANSLIT:;
#ARTISTTRANSLIT:Jewelry;
#CREDIT:;
#BANNER:How Are You-bn.png;
#BACKGROUND:How Are You-bg.png;
#LYRICSPATH:;
#CDTITLE:pm4cd.png;
#MUSIC:How Are You.mp3;
#OFFSET:-0.020;
#SAMPLESTART:88.411;
#SAMPLELENGTH:20.000;
#SELECTABLE:YES;
#BPMS:0.000=110.030;
#STOPS:;
#BGCHANGES:;
// cache tags:
#FIRSTBEAT:3.750;
#LASTBEAT:377.750;
#SONGFILENAME:Songs/Music V.I.P ^_^/How Are You/How Are You.sm;
#HASMUSIC:1;
#HASBANNER:1;
#MUSICLENGTH:208.360;
// end cache tags

//---------------dance-single - ----------------
#NOTES:
     dance-single:
     :
     Hard:
     11:
     1.000,1.000,1.000,0.374,1.000,965.000,391.000,78.000,0.000,161.000:
0000
0000
0000
0000
0000
0000
0000
0000
0000
0000
0000
0000
0000
0000
0000
0011
,
0000
0100
1000
0100
1000
0100
1000
0000
0000
0010
0000
0100
0000
1000
0000
0011
,
0000
0010
0001
0010
0001
0010
0001
0000
0000
0001
0000
0010
0000
0100
0000
0011
,
0000
0100
0000
1000
0000
0010
0000
0100
0000
0001
0000
1000
0000
0100
0000
0022
,
0000
0000
0000
0000
0000
0000
0000
1133
0000
0110
0000
0011
0000
0110
0000
1101
,
0000
1000
0100
1000
0100
1000
0100
0011
0000
0000
1100
0000
0000
0010
0000
1100
,
0000
0001
0010
0001
0010
0001
0010
0101
0000
0000
0000
1010
0000
0000
0000
0111
,
0000
1000
0000
0100
0000
0001
0000
0110
0000
0000
0001
1010
0000
0100
0000
2102
,
0000
0000
0000
0000
0000
0000
0000
0000
0000
0000
0100
3113
0000
0000
0000
1111
,
0000
0001
0010
0101
0000
0010
0000
1100
0000
0001
0100
1010
0100
0001
0000
1100
,
0000
0100
0000
0101
0000
0010
0100
1001
0000
0001
1000
0110
0000
0001
0000
0101
,
0000
0100
0010
1100
0000
0100
0000
0101
0000
0100
0010
1001
0010
0100
0000
2020
,
0000
0000
0000
0101
0100
0000
0100
3131
0000
0011
0000
0110
0000
1100
0000
0110
,
0000
0001
0010
1100
0000
1000
0000
0101
0000
0001
0010
1100
0010
0001
0000
0110
,
0000
1000
0000
0101
0000
0010
0001
1100
0000
0100
0010
1001
0000
0010
0000
0101
,
0000
0001
0100
0011
0000
1000
0000
0110
0000
0010
0100
1001
0100
0010
0000
0202
,
0000
0000
0000
1010
1000
0000
1000
1313
0000
0000
0110
1001
0000
0100
0010
1101
,
0010
0001
0010
0100
1000
0100
0010
0001
0010
0100
0010
0002
0000
0013
0100
1000
,
0100
0010
0100
0010
0001
1000
0100
0010
0001
0010
0100
1000
0100
0010
0001
0000
,
0010
0001
0010
0100
0010
0001
0000
1000
0100
0010
0100
0010
0001
0010
0100
0000
,
0001
0010
0100
0010
0100
0010
0100
1011
0000
1101
0000
1011
0000
1101
0000
0110
,
0000
1000
0010
0101
0000
0010
0001
0010
0000
1000
0010
0100
0010
1000
0000
0110
,
0000
0001
0100
0011
0000
1000
0100
0010
0100
0010
0001
0010
0100
1000
0100
1001
,
0010
0001
0010
0100
0010
0001
0010
0100
1000
0100
0010
0001
0010
0100
1000
0101
,
0000
1000
0100
0011
0110
1000
0000
1011
0000
1101
0000
1011
0000
1101
0010
1111
,
0000
0001
0000
0102
0010
0100
1000
0100
0010
0100
0010
0100
1000
0100
0013
0201
,
1000
0010
0001
0010
0001
0010
1000
0010
0001
0010
0301
1020
0100
1000
0001
0100
,
1000
0001
0100
0001
1000
0100
0031
2010
0100
0010
0001
0100
0010
0001
0010
0101
,
0000
0011
3000
1100
0000
0110
0000
1110
0000
1011
0000
1101
0000
1011
1000
1111
,
0000
0000
0000
1100
0010
0001
0010
1001
0000
1000
0010
1100
0000
0010
0000
0101
,
0000
1000
0000
0110
0000
0001
1000
0110
0000
1000
0100
0011
0000
0110
0000
1100
,
0000
0000
0000
0001
0010
0100
0010
0001
0010
0100
1000
0100
0010
0100
1000
0122
,
0000
0000
0000
1000
0100
1000
0100
1133
0010
0101
0010
1100
0010
0101
0000
1111
,
0000
1000
0100
0011
0000
0001
0000
1010
0000
1000
0100
0011
0100
1000
0000
0101
,
0000
1000
0000
0110
0000
0010
0100
1010
0000
1000
0010
1001
0000
0100
0000
0011
,
0000
0001
0100
1010
0000
0100
0000
1100
0000
0100
0010
0101
0010
0100
0000
2200
,
0000
0000
0000
0011
0001
0000
0001
3311
0000
1100
0000
0110
0000
0011
0000
0110
,
0000
0100
1000
0110
0000
1000
0000
1100
0000
0010
0100
1010
0100
0010
0000
0011
,
0000
0001
0000
0110
0000
0010
1000
0011
0000
0010
1000
0110
0000
0010
0000
0101
,
0000
0100
1000
0101
0000
0001
0000
1100
0000
0001
0010
0101
1000
0100
0000
0220
,
0000
0000
0000
1001
1000
0000
1000
1331
0000
0111
0000
1110
0000
0111
0000
1111
,
0000
1000
0100
0010
0010
0100
1000
0101
0010
0100
0010
0001
0001
0010
0100
0011
,
0100
0001
0010
0100
0100
1000
0100
0011
1000
0100
0001
0010
0010
0100
1000
0101
,
0010
1000
0100
1000
1000
0100
0010
1001
0010
0100
1000
0100
0100
0010
0100
0012
,
1000
0100
0010
1000
1000
0010
0100
1013
0000
1011
0000
1101
0000
0111
0000
1111
,
0000
0001
0100
0010
0010
1000
0100
0011
0100
0001
0100
1000
1000
0100
0010
1001
,
0010
0001
0100
0010
0010
0100
1000
0110
0001
0100
0010
0001
0001
1000
0010
0101
,
0010
0100
1000
0010
0010
0100
1000
0101
0010
0001
1000
0100
0100
1000
0010
2100
,
0010
0001
0100
0010
0010
0100
0001
3101
0000
0000
0111
1110
0000
0010
0000
0102
,
0000
0010
0000
1000
0000
0100
0000
0010
0100
1000
0100
0010
0100
1000
0100
0010
,
0000
0100
0000
1000
0100
0000
0100
2013
0000
0010
0000
0100
0000
0011
0000
0110
,
0000
0100
0010
0001
0010
0100
0010
0100
0010
0000
0000
0100
0010
0010
0001
3020
,
0100
1000
0100
0001
0100
0001
1000
0101
0000
1100
0000
0101
0000
1100
0000
1131
,
0000
0001
0010
1100
0000
1000
0000
0101
0000
0010
0100
1001
0100
0010
0001
1100
,
0000
0010
0000
0101
0000
0001
0010
1100
0000
0001
0100
1010
0100
0001
0000
0011
,
0000
1000
0001
0110
0000
0001
0000
1010
0000
0010
0100
0011
0000
0100
0000
1001
,
0000
0100
0000
0011
0110
0000
0110
1011
0000
1101
0000
1011
0000
1101
0000
1111
,
0000
1000
0000
0102
0000
0010
0000
1100
0000
0010
1000
0110
1000
0010
0100
1010
,
0000
1000
0010
1100
0010
1000
0100
1010
0000
0100
0010
1100
0000
0110
0000
2103
,
0000
0110
0000
0011
0000
0101
0000
0110
0000
0001
0010
0101
0010
0100
0010
0101
,
0000
0000
0000
0101
0011
0000
0011
3101
0000
1110
0000
0111
0000
1110
0000
0011
,
0011
0011
0011
0110
0000
0000
0000
1000
0000
0000
0100
0010
0000
0001
0000
0110
,
0110
0110
0110
1100
0000
0000
0000
0001
0000
0000
0010
0100
0000
1000
0000
1100
,
1100
1100
1100
0101
0000
0000
0000
0001
0000
0000
1000
0100
0000
0010
0000
2222
,
0000
0000
0000
0000
0000
0000
3333
1110
0000
0111
0000
1110
0000
0111
0000
1111
,
0000
0000
1100
1010
0000
0001
0000
0110
0000
0000
0110
0101
0000
0010
0000
1100
,
0000
0000
0000
0101
1100
0000
1100
0101
0000
0000
0011
1010
0000
0100
0000
0011
,
0000
0000
1100
1010
0000
0001
0000
1100
0000
0000
1100
1010
0000
0001
0000
0101
,
0000
0000
0000
0011
0101
0000
0101
0011
0000
0000
1010
1100
0000
0010
0000
0101
,
0000
0000
0110
1010
0000
0001
0000
1100
0000
0000
0011
0110
1000
0100
0000
1020
,
0000
0000
0000
1100
0101
0000
0101
1130
0000
0000
0011
1001
0000
0100
0000
1011
,
0000
0000
1100
0110
0000
0001
0000
1010
0000
0000
0011
1010
0001
0010
0000
2002
,
0000
0000
0000
0110
0110
0000
0110
0110
0000
0000
0110
3113
1001
0220
0000
0000
,
0000
0000
0000
0000
0000
0000
0000
2002
0000
3333
0000
0202
0303
0202
0303
0202
,
0303
0010
0000
1000
0000
0110
0110
0110
0000
2020
3030
2020
3030
2020
3030
2020
,
3030
0100
0000
0001
0000
1100
1100
1100
0000
2002
3003
2002
3003
2002
3003
0220
,
0330
1000
0000
0010
0000
1100
1100
1100
0000
0022
0033
0220
0330
2200
3300
0222
,
0000
0000
0000
0000
0000
0000
0333
0111
0000
1110
0000
0111
0000
1110
0000
1111
,
0000
1000
0100
1011
0000
1000
0000
0101
0000
1000
0100
1011
0100
1000
0000
0101
,
0000
0100
0000
0110
0000
0110
1000
0111
0000
0110
0001
1110
0000
0001
0000
0101
,
0000
1100
0010
1101
0000
0100
0000
0101
0000
0100
0010
1101
0010
0100
0000
2200
,
0000
0000
0000
0011
0010
0000
0010
3311
0000
1110
0000
0111
0000
1101
0000
1011
,
0000
0101
0010
1101
0000
1000
0000
0101
0000
0100
0010
1101
0010
0100
0000
0110
,
0000
1000
0000
0101
0000
1010
0001
1110
0000
0101
0010
1101
0000
0010
0000
0101
,
0000
1001
0100
1011
0000
1000
0000
0110
0000
0100
1000
0111
1000
0100
0000
0022
,
0000
0000
0000
1100
0100
0000
0100
1133
0000
1101
0000
1110
0000
0111
0000
1111
,
0000
0011
1000
0111
0000
0010
0000
1001
0000
0010
0001
1110
0001
0010
0000
0011
,
0000
0010
0000
1010
0000
1010
0100
1011
0000
1001
0010
1101
0000
0001
0000
0011
,
0000
0101
0010
1101
0000
0100
0000
0101
0000
1000
0010
1101
0010
1000
0000
2002
,
0000
0000
0000
0110
0010
0000
0010
3113
0000
1011
0000
0111
0000
1110
0000
0011
,
0000
0100
0000
1000
0000
0010
0000
1100
0000
0001
0000
1000
0000
0100
0000
0021
,
0000
0000
0000
1000
0000
0000
0000
0131
0000
0011
0110
1100
0110
1111
0000
1000
,
0000
0010
0000
1000
0000
0100
0000
1001
0000
0010
0000
0100
0000
1000
0000
0201
,
0000
0000
0000
0000
0000
0000
0000
0311
0000
0000
1100
1100
0110
0022
0000
0000
,
0000
0000
0000
0000
0000
0000
0000
0033
0000
0000
0000
0000
0000
0000
0000
0000
;

//---------------dance-single - ----------------
#NOTES:
     dance-single:
     :
     Medium:
     1:
     0.000,0.000,0.000,0.000,0.000,0.000,0.000,0.000,0.000,0.000:
0000
0000
0000
0000
;
